Skip to main content

Camper Van Beethoven Live at McCabe's Guitar Shop on 1988-04-08




01. Intro
02. Fayettenam
03. Trip Around The World (?)
04. Bo Diddley
05. The Shah Sleeps In Lee Harvey's Grave (Butthole Surfers) Country-Fied
06. Born on the Bayou (John Fogerty)
07. Life X 2 Minus 1
08. Reason To Believe (Tim Hardin)
09. Psychedelic Basement
10. The Rake
11. Used Record Pile
12. Chase The Blues Away (Tim Buckley)
13.
14. Careful With That Axe Eugene (Pink Floyd)
15. Swords And Shields
16. Waltz Across Texas (Ernest & Talmadge Tubb)


Collection CamperVanBeethoven
Band/Artist Camper Van Beethoven
Venue McCabe's Guitar Shop
Location Santa Monica, CA USA

Source unknown gen aud cass
Lineage Aud>Azimuth>Audacity>AMplified>Normalized>DC Offsets>TLH>Flac>Dime>You>?
Taped by ?
Transferred by CreatureD

Notes

Camper Van Chadbourne

Aud>Azimuth>Audacity>AMplified>Normalized>DC Offsets>TLH>Flac> xACT 1.64 (SBE alignment) > FLAC

unknown gen aud cass.
Seeded to dimeadozen.org on November 24, 2008 by Creatured, SBE's adjusted and uploaded to Archive.org by morst 2009-01

"Thanks to Brian C for the trade, I think it was Brian?" (CreatureD)
"Sounds like the speed runs a little fast on this recording" (morst)

SHNTOOL:
length expanded size cdr WAVE problems fmt ratio filename
2:26.67 25912028 B --- -- ---xx CVC1988-04-08t01.flac
5:38.30 59693804 B --- -- ---xx CVC1988-04-08t02.flac
3:24.08 36004460 B --- -- ---xx CVC1988-04-08t03.flac
4:09.67 44081228 B --- -- ---xx CVC1988-04-08t04.flac
2:12.53 23409500 B --- -- ---xx CVC1988-04-08t05.flac
4:41.30 49639004 B --- -- ---xx CVC1988-04-08t06.flac
3:40.07 38824508 B --- -- ---xx CVC1988-04-08t07.flac
2:40.30 28294604 B --- -- ---xx CVC1988-04-08t08.flac
4:26.53 47047100 B --- -- ---xx CVC1988-04-08t09.flac
4:00.52 42458348 B --- -- ---xx CVC1988-04-08t10.flac
3:53.38 41190620 B --- -- ---xx CVC1988-04-08t11.flac
5:50.60 61881164 B --- -- ---xx CVC1988-04-08t12.flac
3:08.07 33179708 B --- -- ---xx CVC1988-04-08t13.flac
7:47.53 82503500 B --- -- ---xx CVC1988-04-08t14.flac
3:26.30 36409004 B --- -- ---xx CVC1988-04-08t15.flac
3:45.08 39708860 B --- -- ---xx CVC1988-04-08t16.flac
65:12.68 690237440 B 0.6582 (16 files)

Reviews

There are no reviews yet. Be the first one to write a review.
Uploaded by
morst
on 1/18/2009
Views
2,090
Favorites
2
PEOPLE ALSO FOUND
Camper Van Beethoven
by Camper Van Beethoven
9,936
0
1
( 1 reviews )
Source: Sony ECM-717 > Sharp MD-MT190MD
Camper Van Beethoven
by Camper Van Beethoven
2,674
0
1
( 1 reviews )
Source: Sony ECM-717 > Sharp Minidisc MD-MT190
Camper Van Beethoven
by Camper Van Beethoven
344
0
0
Source: audience > Sony WM-D6c > MCAS
Camper Van Beethoven
by Camper Van Beethoven
407
0
0
Camper Van Beethoven
by Camper Van Beethoven
145
0
0
Source: soundboard > Sony D5 > TDK MA90 cassette master tape
Camper Van Beethoven
by Camper Van Beethoven
1,831
1
0
Source: SBD
Camper Van Beethoven
by Camper Van Beethoven
690
2
0
Source: KM140's > MV100 > PCM-M10 (EMTEN) > WAV @2448
Camper Van Beethoven
by Camper Van Beethoven
331
1
0
Source: DPA 4061 mics upstairs > Sony PCM-D50 > WAV @48/24
Camper Van Beethoven
by Camper Van Beethoven
4,770
1
2
( 2 reviews )
Source: DSM6 -> PACLC -> M1
Camper Van Beethoven
by Camper Van Beethoven
931
2
1
( 1 reviews )
Source: AKG CB568D Hybrid Shotguns (48v) > Monster Studio Grade Cables > Zoom H4